<?xml version="1.0" standalone="no"?>
<!DOCTYPE svg PUBLIC "-//W3C//DTD SVG 1.1//EN" "http://www.w3.org/Graphics/SVG/1.1/DTD/svg11.dtd" >
<svg xmlns="http://www.w3.org/2000/svg" xmlns:xlink="http://www.w3.org/1999/xlink" version="1.1">
<metadata></metadata>
<defs>
<font id="verbatimregular" horiz-adv-x="600" >
<font-face units-per-em="1000" ascent="800" descent="-200" />
<missing-glyph horiz-adv-x="300" />
<glyph horiz-adv-x="0" />
<glyph horiz-adv-x="333" />
<glyph unicode=" "  horiz-adv-x="300" />
<glyph unicode="&#x09;" horiz-adv-x="300" />
<glyph unicode="&#xa0;" horiz-adv-x="300" />
<glyph unicode="!" horiz-adv-x="283" d="M184 743v-392l-9 -145h-67l-9 145l1 392h84zM184 118v-123h-84v123h84z" />
<glyph unicode="&#x22;" horiz-adv-x="373" d="M119 743v-272h-69v272h69zM303 743v-272h-69v272h69z" />
<glyph unicode="#" horiz-adv-x="703" d="M526 473l-36 -234h92l-11 -66h-91l-26 -173h-71l26 173h-170l-26 -173h-72l26 173h-91l11 66h90l36 234h-91l11 66h90l24 161h72l-25 -161h170l25 161h71l-24 -161h91l-11 -66h-90zM454 473h-170l-35 -234h170z" />
<glyph unicode="$" horiz-adv-x="674" d="M553.5 53q-56.5 -49 -181.5 -53l7 -66h-82l6 68q-118 8 -178 63t-60 163h86q0 -82 47 -116t153 -34q94 0 133.5 26t39.5 90q0 51 -22.5 77t-60 37.5t-115.5 25.5q-92 16 -144.5 41.5t-73.5 61t-21 87.5q0 88 53.5 129.5t160.5 45.5l-6 67h82l-7 -67q107 -7 160.5 -53 t53.5 -142h-86q0 65 -41.5 91.5t-131.5 26.5q-81 0 -116.5 -21.5t-35.5 -76.5q0 -37 16.5 -57t51.5 -32.5t107 -27.5l21 -4q91 -19 137 -35.5t75 -55.5t29 -112q0 -98 -56.5 -147z" />
<glyph unicode="%" horiz-adv-x="1138" d="M770 721l-317 -742h-78l317 742h78zM467 469q0 -134 -56 -187t-142 -53t-142 53t-56 187q0 239 198 239t198 -239zM182.5 605.5q-30.5 -38.5 -30.5 -136.5t30.5 -136.5t86.5 -38.5t86.5 38.5t30.5 136.5t-30.5 136.5t-86.5 38.5t-86.5 -38.5zM1067 232q0 -134 -56 -187 t-142 -53t-142 53t-56 187q0 239 198 239t198 -239zM782.5 368.5q-30.5 -38.5 -30.5 -136.5t30.5 -137t86.5 -39t86.5 39t30.5 137t-30.5 136.5t-86.5 38.5t-86.5 -38.5z" />
<glyph unicode="&#x26;" horiz-adv-x="683" d="M641 98v-80q-13 -8 -35.5 -14.5t-49.5 -6.5q-38 0 -67.5 14.5t-39.5 41.5q-21 -21 -37.5 -33t-49 -20.5t-84.5 -8.5q-116 0 -172 48t-56 143q0 147 127 174v3q-35 14 -60 55.5t-25 109.5q0 94 53.5 139.5t163.5 45.5q78 0 135 -24t99 -82l-65 -51q-22 34 -65.5 57.5 t-106.5 23.5q-68 0 -98 -26.5t-30 -91.5t28.5 -94t86.5 -29h327v-75h-105v-190q0 -27 11 -40.5t37 -13.5q35 0 78 25zM399 96q35 28 35 62v159h-141q-87 0 -122 -33t-35 -94q0 -59 33 -90.5t114 -31.5t116 28z" />
<glyph unicode="'" horiz-adv-x="189" d="M119 743v-272h-69v272h69z" />
<glyph unicode="(" horiz-adv-x="301" d="M263 711q-53 -101 -76.5 -192.5t-23.5 -208.5q0 -115 23 -209t77 -198h-77q-57 113 -82.5 202.5t-25.5 204.5q0 113 26 204t82 197h77z" />
<glyph unicode=")" horiz-adv-x="301" d="M197.5 515q25.5 -91 25.5 -205q0 -115 -25.5 -204.5t-82.5 -202.5h-77q54 105 77.5 198.5t23.5 208.5q0 116 -24 208t-77 193h77q57 -105 82.5 -196z" />
<glyph unicode="*" horiz-adv-x="490" d="M358 568l67 -38l-35 -60l-67 38l-48 33l5 -58v-77h-70v77l5 58l-48 -33l-67 -38l-35 60l67 38l54 25l-54 26l-67 38l35 60l67 -38l48 -35l-5 61v76h70v-76l-5 -61l49 35l66 38l35 -60l-66 -38l-54 -26z" />
<glyph unicode="+" horiz-adv-x="485" d="M411 276h-133v-132h-70v132h-134v66h134v133h70v-133h133v-66z" />
<glyph unicode="," horiz-adv-x="264" d="M174 82l-18 -86l-57 -141h-45l26 146l10 81h84z" />
<glyph unicode="-" horiz-adv-x="447" d="M373 324v-67h-299v67h299z" />
<glyph unicode="." horiz-adv-x="264" d="M174 82v-87h-84v87h84z" />
<glyph unicode="/" horiz-adv-x="421" d="M405 743l-318 -840h-77l318 840h77z" />
<glyph unicode="0" horiz-adv-x="652" d="M459 681q57 -27 93 -106t36 -225t-36 -225t-93 -106t-133 -27t-132.5 27t-93 106t-36.5 225t36.5 225t93 106t132.5 27t133 -27zM228.5 617q-38.5 -23 -59.5 -86t-21 -181t21 -181t59.5 -86t97.5 -23t97.5 23t59.5 86t21 181t-21 181t-59.5 86t-97.5 23t-97.5 -23z" />
<glyph unicode="1" horiz-adv-x="454" d="M348 0h-82v624l-190 -136l-34 66l208 146h98v-700z" />
<glyph unicode="2" horiz-adv-x="621" d="M561 0h-501v100q0 76 17.5 114.5t57.5 63.5t140 70l26 12q83 38 117 57.5t46 39.5t12 56q0 52 -17.5 79.5t-51.5 37.5t-92 10q-85 0 -127 -24t-42 -91v-30h-82v32q0 98 67.5 139.5t185.5 41.5q119 0 180.5 -43t61.5 -150q0 -53 -19 -86.5t-67.5 -64t-147.5 -72.5 q-7 -3 -15 -6.5t-17 -7.5q-68 -29 -96 -45.5t-41.5 -43.5t-13.5 -79v-40h419v-70z" />
<glyph unicode="3" horiz-adv-x="646" d="M545 433q-18 -34 -40.5 -47.5t-52.5 -23.5v-3q33 -8 60.5 -22.5t48.5 -51t21 -99.5q0 -110 -67 -152t-190 -42q-126 0 -193.5 43.5t-67.5 153.5v25h84v-25q0 -53 20 -81t57.5 -38t97.5 -10q59 0 96 9.5t58 38t21 81.5q0 79 -39 108t-88 30h-84v66h79q49 1 82 27t33 98 q0 53 -20 79.5t-52 34.5t-81 8q-81 0 -123 -20.5t-43 -84.5v-19h-82v20q1 96 67.5 134t182.5 38q110 0 171.5 -38.5t61.5 -144.5q0 -58 -18 -92z" />
<glyph unicode="4" horiz-adv-x="651" d="M597 180h-99v-180h-82v180h-362l1 61l336 459h107v-454h99v-66zM420 613l-269 -368h269v368z" />
<glyph unicode="5" horiz-adv-x="640" d="M167 394q26 61 112 61h106q104 0 152.5 -52.5t48.5 -171.5q0 -120 -58 -179.5t-196 -59.5q-140 0 -199 56.5t-59 155.5v22h82v-20q0 -44 13 -75.5t51 -51t109 -19.5q70 0 107.5 20.5t51.5 57t14 91.5q0 86 -32 123t-108 37h-99q-49 0 -71.5 -19t-29.5 -52h-73l29 382h419 v-70h-350z" />
<glyph unicode="6" horiz-adv-x="631" d="M516.5 399.5q50.5 -51.5 50.5 -162.5q0 -131 -63.5 -188t-184.5 -57q-127 0 -191 58.5t-64 187.5v180q0 153 61.5 221.5t188.5 68.5q111 0 168 -47t57 -135h-80q0 57 -36.5 85.5t-106.5 28.5q-85 0 -128.5 -48t-43.5 -158v-66q9 31 59 57t143 26q120 0 170.5 -51.5z M442.5 99.5q40.5 39.5 40.5 134.5q0 53 -13.5 85.5t-49 49t-99.5 16.5q-72 0 -110.5 -19.5t-51.5 -52t-13 -79.5q0 -94 40.5 -134t129.5 -40q86 0 126.5 39.5z" />
<glyph unicode="7" horiz-adv-x="572" d="M516 700v-53l-316 -647h-87l310 630h-367v70h460z" />
<glyph unicode="8" horiz-adv-x="644" d="M515.5 34.5q-64.5 -42.5 -192.5 -42.5q-129 0 -194 42.5t-65 150.5q0 87 33 126.5t102 50.5v3q-59 13 -87.5 49.5t-28.5 110.5q0 101 58.5 142t181.5 41q122 0 180.5 -41.5t58.5 -142.5q0 -75 -29 -110.5t-88 -48.5v-3q70 -11 102.5 -51t32.5 -126q0 -108 -64.5 -150.5z M229.5 630q-33.5 -10 -49 -36.5t-15.5 -75.5q0 -68 39 -94.5t118 -26.5t118.5 26.5t39.5 94.5q0 49 -15.5 75.5t-49 36.5t-92.5 10q-60 0 -93.5 -10zM424 71q37 11 54.5 39t17.5 80q0 81 -43 110t-130 29q-88 0 -131.5 -29t-43.5 -110q0 -52 17.5 -80t55 -39t102.5 -11 q64 0 101 11z" />
<glyph unicode="9" horiz-adv-x="631" d="M161.5 261.5q-52.5 24.5 -75 75t-22.5 132.5q0 127 63.5 183t183.5 56q130 0 193 -61t63 -197v-193q0 -138 -61.5 -201.5t-185.5 -63.5q-116 0 -178 47.5t-62 141.5h82q0 -65 38 -93t119 -28q83 0 125.5 41t42.5 140v82q-12 -33 -57.5 -59.5t-123.5 -26.5 q-92 0 -144.5 24.5zM188 601q-40 -39 -40 -131q0 -61 13.5 -96.5t50 -53t105.5 -17.5t106 20.5t49.5 56t12.5 87.5q0 94 -41 133.5t-131 39.5q-85 0 -125 -39z" />
<glyph unicode=":" horiz-adv-x="264" d="M174 82v-87h-84v87h84zM174 503v-87h-84v87h84z" />
<glyph unicode=";" horiz-adv-x="264" d="M174 82l-18 -86l-57 -141h-45l26 146l10 81h84zM174 503v-87h-84v87h84z" />
<glyph unicode="&#x3c;" horiz-adv-x="476" d="M147 310l257 -132l-25 -57l-325 168v41l325 168l25 -57z" />
<glyph unicode="=" horiz-adv-x="489" d="M415 408v-65h-341v65h341zM415 277v-65h-341v65h341z" />
<glyph unicode="&#x3e;" horiz-adv-x="476" d="M97 498l325 -168v-41l-325 -168l-25 57l257 132l-257 131z" />
<glyph unicode="@" horiz-adv-x="1084" d="M770.5 658.5q97.5 -50.5 150.5 -144t53 -217.5q0 -137 -59.5 -197t-145.5 -60q-56 0 -87.5 21.5t-35.5 47.5l-1 6q-25 -26 -64 -44t-88 -18q-81 0 -133 53.5t-52 163.5q0 78 29 136t78 88.5t110 30.5q47 0 82.5 -17.5t64.5 -47.5l18 37h61l-37 -357q-1 -4 -1 -11 q0 -53 71 -53q58 0 107 43.5t49 175.5q0 118 -48.5 205t-138.5 133t-211 46q-114 0 -204 -43t-142 -130t-52 -215t52 -215t142 -129.5t204 -42.5q81 0 157 24l-3 -33q-71 -21 -154 -21q-122 0 -220 46t-155 140t-57 231t57 231t155 140.5t221 46.5q130 0 227.5 -50.5z M655 394q-19 30 -49.5 46.5t-69.5 16.5q-67 0 -104.5 -50t-37.5 -143q0 -77 28 -110t88 -33q43 0 74 14.5t48 40.5z" />
<glyph unicode="A" horiz-adv-x="708" d="M518 167h-328l-62 -167h-88l264 700h100l264 -700h-88zM359 600l-2 11h-5l-3 -11l-130 -358h271z" />
<glyph unicode="B" horiz-adv-x="677" d="M559.5 661.5q46.5 -38.5 46.5 -108.5v-69q0 -53 -27 -82.5t-63 -39.5v-3q43 -9 76 -40.5t33 -86.5v-78q0 -75 -48.5 -114.5t-135.5 -39.5h-367v700h360q79 0 125.5 -38.5zM158 625v-230h264q49 0 74.5 19t25.5 64v63q0 45 -26 64.5t-74 19.5h-264zM158 320v-245h271 q54 0 83 20.5t29 67.5v70q0 47 -29 67t-82 20h-272z" />
<glyph unicode="C" horiz-adv-x="682" d="M493 12.5q-64 -21.5 -143 -21.5q-91 0 -153 30.5t-97.5 109t-35.5 218.5q0 144 36 223t99 108t156 29q72 0 132 -13.5t129 -38.5l-27 -81q-62 25 -117 39t-119 14q-75 0 -118.5 -24t-64 -84t-20.5 -169q0 -116 22.5 -177t64 -82t109.5 -21q72 0 123 18t129 62l36 -72 q-77 -46 -141 -67.5z" />
<glyph unicode="D" horiz-adv-x="726" d="M536.5 669.5q56.5 -30.5 89 -90.5t32.5 -147v-166q0 -87 -33 -147t-88 -89.5t-123 -29.5h-340v700h334q72 0 128.5 -30.5zM574 426q0 100 -50 149.5t-127 49.5h-239v-550h238q79 0 128.5 48.5t49.5 148.5v154z" />
<glyph unicode="E" horiz-adv-x="610" d="M539 700v-75h-381v-231h364v-75h-364v-244h388v-75h-472v700h465z" />
<glyph unicode="F" horiz-adv-x="588" d="M74 700h457v-75h-373v-242h354v-75h-354v-308h-84v700z" />
<glyph unicode="G" horiz-adv-x="740" d="M672 126q-44 -61 -124.5 -98t-187.5 -37q-95 0 -159 29.5t-100.5 109t-36.5 224.5q0 141 35.5 218.5t102.5 107t171 29.5q87 0 142 -14.5t121 -42.5l-30 -79q-61 26 -117 41t-128 15q-76 0 -121 -23t-67.5 -83t-22.5 -169q0 -114 24 -175.5t69.5 -84t120.5 -22.5 q87 0 136 22t88 62v165h-212v75h296v-270z" />
<glyph unicode="H" horiz-adv-x="688" d="M614 700v-700h-84v320h-372v-320h-84v700h84v-305h372v305h84z" />
<glyph unicode="I" horiz-adv-x="252" d="M168 700v-700h-84v700h84z" />
<glyph unicode="J" horiz-adv-x="662" d="M576 195q0 -88 -60.5 -146t-207.5 -58q-122 0 -189.5 45.5t-68.5 134.5v65h82v-55q0 -111 173 -111q113 0 150 38.5t37 96.5v420h-199v75h283v-505z" />
<glyph unicode="K" horiz-adv-x="641" d="M233 324h-75v-324h-84v700h84v-301h83l252 301h93l-284 -340l305 -360h-103z" />
<glyph unicode="L" horiz-adv-x="571" d="M158 700v-625h363v-75h-447v700h84z" />
<glyph unicode="M" horiz-adv-x="813" d="M739 0h-84v546l3 39h-4l-5 -15l-210 -373h-64l-210 373l-6 15h-4l3 -39v-546h-84v700h102l225 -396l4 -10h4l3 10l226 396h101v-700z" />
<glyph unicode="N" horiz-adv-x="700" d="M626 700v-700h-90l-367 546l-9 19h-4l2 -29v-536h-84v700h90l367 -551l10 -19h4l-3 30v540h84z" />
<glyph unicode="O" horiz-adv-x="756" d="M548 680q68 -29 106 -108t38 -223t-38 -222.5t-106 -107t-170 -28.5t-170 28.5t-106 107t-38 222.5t38 223t106 108t170 29t170 -29zM249.5 606.5q-48.5 -22.5 -74 -83.5t-25.5 -174t25.5 -173t74 -82t128.5 -22t128.5 22t74 82t25.5 173t-25.5 174t-74 83.5t-128.5 22.5 t-128.5 -22.5z" />
<glyph unicode="P" horiz-adv-x="644" d="M531 652.5q53 -47.5 53 -134.5v-78q0 -90 -52.5 -136t-135.5 -46h-238v-258h-84v700h316q88 0 141 -47.5zM500 516q0 54 -31.5 81.5t-88.5 27.5h-222v-292h221q121 0 121 109v74z" />
<glyph unicode="Q" horiz-adv-x="756" d="M641 102.5q-51 -79.5 -150 -100.5l96 -89h-107l-76 79l-26 -1q-102 0 -170 28.5t-106 107t-38 222.5t38 223t106 108t170 29t170 -29t106 -108t38 -223q0 -167 -51 -246.5zM506.5 94q48.5 22 74 82t25.5 173t-25.5 174t-74 83.5t-128.5 22.5t-128.5 -22.5t-74 -83.5 t-25.5 -174t25.5 -173t74 -82t128.5 -22t128.5 22z" />
<glyph unicode="R" horiz-adv-x="671" d="M547 657q49 -43 49 -126v-62q0 -57 -29 -91t-70 -45v-2q61 -13 79 -71q9 -28 16 -113q3 -36 7.5 -76t11.5 -71h-89q-7 37 -13 117q-3 42 -6 67.5t-10 45.5q-11 33 -33.5 48t-66.5 15h-235v-293h-84v700h338q86 0 135 -43zM513 524q0 48 -30.5 74.5t-84.5 26.5h-240v-257 h240q55 0 85 25.5t30 71.5v59z" />
<glyph unicode="S" horiz-adv-x="629" d="M491 580q-46 24 -89.5 37t-100.5 13q-145 0 -145 -99q0 -35 18.5 -56.5t53 -35.5t103.5 -34q83 -24 130 -44t80.5 -60.5t33.5 -108.5q0 -96 -66 -149t-180 -53q-84 0 -159 26.5t-120 59.5l46 67q49 -30 109.5 -51.5t126.5 -21.5q69 0 113 28.5t44 92.5q0 41 -20.5 64.5 t-57 38t-117.5 38.5q-71 20 -115.5 40t-76.5 59t-32 102q0 92 66.5 134.5t165.5 42.5q67 0 126.5 -16.5t101.5 -40.5z" />
<glyph unicode="T" horiz-adv-x="632" d="M576 625h-218v-625h-84v625h-218v75h520v-75z" />
<glyph unicode="U" horiz-adv-x="688" d="M614 700v-512q0 -85 -63.5 -141t-206.5 -56q-142 0 -205.5 56t-64.5 141v512h84v-485q0 -64 39 -103.5t147 -39.5t147 39.5t39 103.5v485h84z" />
<glyph unicode="V" horiz-adv-x="694" d="M397 0h-100l-262 700h93l214 -594l3 -11h4l3 11l215 594h92z" />
<glyph unicode="W" horiz-adv-x="923" d="M888 700l-180 -700h-103l-139 557l-3 15h-3l-3 -15l-139 -557h-103l-180 700h88l139 -596l3 -16h4l3 16l147 596h85l147 -596l3 -16h4l3 16l139 596h88z" />
<glyph unicode="X" horiz-adv-x="680" d="M545 0l-200 307l-3 7h-4l-3 -7l-200 -307h-101l247 364l-226 336h101l179 -281l3 -7h4l3 7l179 281h101l-225 -336l246 -364h-101z" />
<glyph unicode="Y" horiz-adv-x="677" d="M646 700l-265 -437v-263h-84v263l-266 437h96l207 -343l3 -9h4l3 10l208 342h94z" />
<glyph unicode="Z" horiz-adv-x="593" d="M533 0h-473v65l356 560h-343v75h445v-64l-355 -561h370v-75z" />
<glyph unicode="[" horiz-adv-x="296" d="M167 651v-688h99v-60h-181v808h181v-60h-99z" />
<glyph unicode="\" horiz-adv-x="421" d="M411 -97h-77l-318 840h77z" />
<glyph unicode="]" horiz-adv-x="296" d="M30 711h181v-808h-181v60h99v688h-99v60z" />
<glyph unicode="^" horiz-adv-x="454" d="M329 441l-88 196l-12 30h-3l-13 -30l-88 -196h-73l136 302h78l136 -302h-73z" />
<glyph unicode="_" horiz-adv-x="514" d="M467 -68v-48h-420v48h420z" />
<glyph unicode="`" horiz-adv-x="277" d="M157 637l-95 146h76l69 -146h-50z" />
<glyph unicode="a" d="M188 571.5q55 18.5 126 18.5q95 0 154 -38t59 -128l-1 -324l10 -100h-74l-13 52q-39 -29 -85.5 -43.5t-107.5 -14.5q-204 0 -204 159v17q0 51 19.5 82.5t67 53.5t136.5 42q93 21 122.5 29t37 14t7.5 20v14q0 53 -37.5 75t-96.5 22q-48 0 -88 -15t-84 -50l-47 60 q44 36 99 54.5zM428 319.5q-10 -6.5 -41 -16.5t-94 -25q-68 -17 -99 -29t-44.5 -31.5t-13.5 -56.5v-9q0 -49 29.5 -68.5t101.5 -19.5q62 0 101 12t76 38v221q-6 -9 -16 -15.5z" />
<glyph unicode="b" horiz-adv-x="615" d="M501 56.5q-60 -62.5 -161 -62.5q-127 0 -188 76l-14 -70h-72l8 113v630h83v-216q30 29 75.5 46t102.5 17q104 0 165 -62.5t61 -235.5t-60 -235.5zM457.5 434.5q-18.5 50.5 -52 69t-82.5 18.5q-53 0 -97 -17.5t-71 -52.5v-314q21 -37 64 -56t101 -19q51 0 84.5 18.5 t52.5 68.5t19 142t-18.5 142.5z" />
<glyph unicode="c" horiz-adv-x="598" d="M296 -8q-109 0 -175.5 65.5t-66.5 235.5q0 167 66.5 232t185.5 65q96 0 149 -25t80 -48l-45 -57q-3 2 -27 19t-66.5 30t-91.5 13q-55 0 -91 -21.5t-55.5 -75t-19.5 -145.5q0 -120 38 -170t114 -50q54 0 96 17t65.5 35.5t51.5 45.5l48 -54q-98 -112 -256 -112z" />
<glyph unicode="d" horiz-adv-x="614" d="M84.5 477q30.5 66 80 89.5t117.5 23.5q118 0 175 -60v213h83v-630l6 -113h-74l-7 71q-32 -38 -77 -57.5t-111 -19.5t-114.5 23.5t-78.5 89t-30 185.5q0 119 30.5 185zM157.5 150q18.5 -50 52 -68.5t84.5 -18.5q59 0 101.5 19t63.5 56v316q-51 68 -162 68q-52 0 -86 -18.5 t-53 -69t-19 -142.5t18.5 -142z" />
<glyph unicode="e" horiz-adv-x="605" d="M551 300v-31h-414q1 -81 20.5 -126.5t55.5 -64t93 -18.5q64 0 118 19t95 46l15 -70q-38 -27 -98.5 -45t-132.5 -18q-122 0 -185.5 64t-63.5 227q0 165 65 236t184 71q248 0 248 -290zM183.5 479q-41.5 -45 -46.5 -145h332q-5 100 -46.5 145t-119.5 45t-119.5 -45z" />
<glyph unicode="f" horiz-adv-x="403" d="M348 516h-130v-516h-83v516h-93v66h93v76q0 95 126 95q53 0 104 -15v-68q-46 17 -101 17q-29 0 -40 -9.5t-11 -34.5v-61h135v-66z" />
<glyph unicode="g" horiz-adv-x="614" d="M276 -108q89 0 139 26.5t50 88.5v70q-26 -29 -73.5 -44t-102.5 -15q-106 0 -170.5 62t-64.5 218q0 162 63.5 227t167.5 65q62 0 107.5 -19t75.5 -59l8 70h66v-588q0 -86 -69.5 -128t-183.5 -42q-48 0 -94.5 6.5t-75.5 18.5l5 64q84 -21 152 -21zM158.5 168.5 q19.5 -46.5 56 -64.5t91.5 -18q46 0 83.5 12.5t69.5 46.5v306q-44 71 -158 71q-81 0 -121.5 -49.5t-40.5 -174.5q0 -83 19.5 -129.5z" />
<glyph unicode="h" horiz-adv-x="610" d="M481 546.5q57 -45.5 57 -131.5v-415h-83v405q0 59 -37 90t-96 31q-95 0 -153 -84l-4 -5v-437h-83v743h83v-233q23 34 66 58t108 24q85 0 142 -45.5z" />
<glyph unicode="i" horiz-adv-x="247" d="M165 743v-82h-83v82h83zM165 582v-582h-83v582h83z" />
<glyph unicode="j" horiz-adv-x="249" d="M167 743v-82h-83v82h83zM167 582v-629q0 -48 -43.5 -78.5t-109.5 -35.5v54q35 12 52.5 32t17.5 50v607h83z" />
<glyph unicode="k" horiz-adv-x="559" d="M214 269h-50v-269h-82v743h82v-408h57l199 247h92l-233 -281l252 -301h-98z" />
<glyph unicode="l" horiz-adv-x="247" d="M165 743v-743h-83v743h83z" />
<glyph unicode="m" horiz-adv-x="962" d="M835 547q55 -45 55 -132v-415h-83v405q0 60 -35 90.5t-97 30.5q-93 0 -149 -82l-5 -7q2 -14 2 -22v-415h-83v405q0 60 -36 90.5t-97 30.5q-90 0 -149 -82l-3 -5v-439h-83v582h69l9 -71q25 33 71 57t108 24q59 0 105.5 -23.5t69.5 -68.5q31 43 79.5 67.5t111.5 24.5 q85 0 140 -45z" />
<glyph unicode="n" d="M472.5 546.5q55.5 -45.5 55.5 -131.5v-415h-83v405q0 60 -35.5 90.5t-96.5 30.5q-57 0 -91.5 -23t-62.5 -62l-4 -5v-436h-83v582h69l7 -72q27 33 73.5 57.5t110.5 24.5q85 0 140.5 -45.5z" />
<glyph unicode="o" horiz-adv-x="624" d="M446 565.5q56 -24.5 90 -90t34 -184.5t-34 -184.5t-90 -90t-134 -24.5t-134 24.5t-90 90t-34 184.5t34 184.5t90 90t134 24.5t134 -24.5zM184 473q-45 -49 -45 -182t45 -182t128 -49t128 49t45 182t-45 182t-128 49t-128 -49z" />
<glyph unicode="p" horiz-adv-x="611" d="M527 106q-30 -66 -79 -90t-116 -24q-119 0 -177 61v-224h-83v753h68l8 -73q25 38 72.5 59.5t115.5 21.5q100 0 160.5 -63.5t60.5 -235.5q0 -119 -30 -185zM453 434.5q-19 50.5 -54.5 69t-90.5 18.5q-56 0 -93.5 -17t-60.5 -55v-326q29 -37 68.5 -50.5t85.5 -13.5 q55 0 90 18.5t54.5 69t19.5 143.5t-19 143.5z" />
<glyph unicode="q" horiz-adv-x="611" d="M115 526.5q61 63.5 163 63.5q67 0 116.5 -20.5t77.5 -59.5l14 72h53v-753h-83v224q-26 -29 -71.5 -45t-105.5 -16q-103 0 -164 63t-61 236q0 172 61 235.5zM158.5 147.5q19.5 -50.5 55 -69t91.5 -18.5q47 0 85 13.5t68 49.5v327q-23 39 -61 55.5t-93 16.5t-90.5 -18.5 t-55 -69t-19.5 -143.5t19.5 -143.5z" />
<glyph unicode="r" horiz-adv-x="440" d="M406 581l-12 -78q-39 13 -77 13q-72 0 -116.5 -38.5t-45.5 -102.5v-375h-83v582h69l10 -89q16 40 62.5 68t117.5 28q41 0 75 -8z" />
<glyph unicode="s" horiz-adv-x="568" d="M458 480q-89 42 -176 42q-57 0 -92.5 -19.5t-35.5 -63.5q0 -30 18 -48t46.5 -28.5t77.5 -22.5q81 -19 126.5 -36t73.5 -50t28 -90q0 -85 -59.5 -128.5t-162.5 -43.5q-76 0 -143.5 22.5t-116.5 57.5l45 62q36 -27 97 -50t124 -23q60 0 96.5 24.5t36.5 75.5q0 45 -35 67 t-120 42q-72 16 -113 30t-71.5 47t-30.5 91q0 79 58 115.5t159 36.5q66 0 112 -11.5t91 -31.5z" />
<glyph unicode="t" horiz-adv-x="430" d="M217 516v-398q0 -29 16 -41.5t50 -12.5q50 0 105 26v-68q-64 -27 -120 -27q-61 0 -97 26.5t-36 81.5v413h-93v66h93v110l74 17l4 -127h164v-66h-160z" />
<glyph unicode="u" horiz-adv-x="595" d="M523 582v-582h-68l-7 68q-25 -30 -69.5 -51.5t-108.5 -21.5q-88 0 -143 40.5t-55 126.5v420h83v-409q0 -110 136 -110q95 0 146 67l3 5v447h83z" />
<glyph unicode="v" horiz-adv-x="555" d="M321 0h-89l-201 582h84l157 -481l3 -7h4l2 7l160 481h83z" />
<glyph unicode="w" horiz-adv-x="811" d="M773 582l-162 -582h-96l-105 450l-2 13h-5l-2 -13l-105 -450h-96l-162 582h83l123 -488l3 -11h4l3 11l113 488h77l113 -488l3 -11h4l3 11l123 488h83z" />
<glyph unicode="x" horiz-adv-x="591" d="M465 0l-164 240l-3 7h-4l-3 -7l-165 -240h-96l218 301l-203 281h96l150 -228l3 -7h4l3 7l150 228h96l-203 -281l217 -301h-96z" />
<glyph unicode="y" horiz-adv-x="529" d="M499 582l-220 -674q-29 -84 -111 -84q-48 0 -94 14l4 58l25 -3q28 -2 38 -2q29 0 50 8q22 9 30 33l20 71h-19l-191 579h86l145 -474l3 -9h4l3 9l138 474h89z" />
<glyph unicode="z" horiz-adv-x="511" d="M459 0h-407v54l291 462h-282v66h383v-52l-292 -464h307v-66z" />
<glyph unicode="{" horiz-adv-x="334" d="M196.5 342q-19.5 -21 -43.5 -21v-12q24 0 43.5 -21t19.5 -54v-240q0 -29 17 -41.5t51 -12.5v-53h-36q-59 0 -86.5 21.5t-27.5 68.5v249q0 32 -16 47t-48 15v55q32 0 48 15t16 47v248q0 47 27.5 68.5t86.5 21.5h36v-53q-34 0 -51 -12.5t-17 -41.5v-240q0 -33 -19.5 -54z " />
<glyph unicode="|" horiz-adv-x="347" d="M209 816v-913h-71v913h71z" />
<glyph unicode="}" horiz-adv-x="334" d="M119 636q0 29 -17 41.5t-52 12.5v53h36q59 0 86.5 -21t27.5 -69v-248q0 -32 16 -47t48 -15v-55q-32 0 -48 -15t-16 -47v-249q0 -48 -27.5 -69t-86.5 -21h-36v53q35 0 52 12.5t17 41.5v240q0 33 19.5 54t43.5 21v12q-24 0 -43.5 21t-19.5 54v240z" />
<glyph unicode="~" horiz-adv-x="595" d="M195 389q36 0 62 -11t59 -33q23 -16 42 -24.5t41 -8.5q27 0 40 15.5t15 46.5h67q-4 -69 -33 -100t-86 -31q-38 0 -64.5 11t-59.5 33q-28 17 -44.5 25t-36.5 8q-28 0 -41 -16t-15 -47h-67q9 132 121 132z" />
<glyph unicode="&#xa2;" horiz-adv-x="631" d="M511.5 102.5q-55.5 -48.5 -174.5 -50.5l6 -95h-76l5 96q-67 6 -112 33.5t-70.5 91t-25.5 172.5t25 172.5t70 91t113 33.5l-5 96h76l-6 -94q113 -3 168 -48t56 -141l-82 -1q0 63 -39 92.5t-119 29.5q-62 0 -98.5 -20t-55 -70t-18.5 -141q0 -94 18.5 -143.5t55 -68 t98.5 -18.5q87 0 125 31.5t38 107.5h83q0 -108 -55.5 -156.5z" />
<glyph unicode="&#xa3;" horiz-adv-x="660" d="M600 75v-75h-531v75h1q33 0 50 59t17 170h-77v75h75q-11 83 -11 140q0 111 59 150t166 39q110 0 176 -39.5t66 -132.5v-20h-82v19q0 93 -157 93q-48 0 -79 -9t-49.5 -40t-16.5 -91l9 -109h264v-75h-263q0 -73 -4 -114t-13 -64.5t-26 -47.5v-3h426z" />
<glyph unicode="&#xa8;" horiz-adv-x="353" d="M127 738v-60h-61v60h61zM287 738v-60h-60v60h60z" />
<glyph unicode="&#xa9;" horiz-adv-x="1084" d="M762 721q98 -46 155 -140t57 -231t-57 -231t-155 -140t-220 -46t-220 46t-155 140t-57 231t57 231t155 140t220 46t220 -46zM338 694.5q-90 -42.5 -142 -129.5t-52 -215t52 -215t142 -129.5t204 -42.5t204 42.5t142 129.5t52 215t-52 215t-142 129.5t-204 42.5 t-204 -42.5zM725 90q-28 -14 -75.5 -26.5t-105.5 -12.5q-82 0 -135.5 23.5t-84.5 89.5t-31 188q0 121 30.5 186t85.5 88t141 23q105 0 223 -45l-22 -69q-53 20 -101 33t-104 13q-65 0 -100.5 -18t-52 -67t-16.5 -145t16.5 -146t51.5 -68t99 -18q44 0 81.5 10.5t60 22 t70.5 38.5l33 -65q-36 -21 -64 -35z" />
<glyph unicode="&#xaa;" horiz-adv-x="576" d="M306 730q89 0 143 -35t54 -118v-301l9 -92h-68l-13 48q-36 -27 -79 -40t-100 -13q-94 0 -141 36t-47 111v15q0 47 18 76t61.5 49.5t126.5 39.5q86 19 113.5 26.5t34.5 13.5t7 19v12q0 48 -35 69t-90 21q-44 0 -81 -14t-77 -46l-44 56q85 67 208 67zM412 480 q-9 -6 -38 -15.5t-87 -23.5q-63 -16 -91.5 -27t-41 -29t-12.5 -52v-9q0 -45 27.5 -63t93.5 -18q57 0 93 11t71 35v205q-6 -8 -15 -14zM493 83v-65h-298v65h298z" />
<glyph unicode="&#xab;" horiz-adv-x="611" d="M140 290l176 -222h-84l-178 222l178 222h84zM363 290l176 -222h-84l-178 222l178 222h84z" />
<glyph unicode="&#xad;" horiz-adv-x="447" d="M373 324v-67h-299v67h299z" />
<glyph unicode="&#xae;" horiz-adv-x="1084" d="M762 721q98 -46 155 -140t57 -231t-57 -231t-155 -140t-220 -46t-220 46t-155 140t-57 231t57 231t155 140t220 46t220 -46zM338 694.5q-90 -42.5 -142 -129.5t-52 -215t52 -215t142 -129.5t204 -42.5t204 42.5t142 129.5t52 215t-52 215t-142 129.5t-204 42.5 t-204 -42.5zM729 606q41 -35 41 -102v-52q0 -52 -24.5 -79.5t-60.5 -37.5v-2q54 -10 69 -67q5 -21 10 -76q9 -83 19 -131h-82q-8 41 -12 97q-2 24 -5 47t-8 39q-9 28 -27.5 40t-54.5 12h-186v-235h-82v582h288q74 0 115 -35zM688 494q0 43 -24 62t-68 19h-188v-215h189 q43 0 67 20t24 62v52z" />
<glyph unicode="&#xb0;" horiz-adv-x="442" d="M105 468q-41 41 -41 123q0 80 41 122t116 42t116 -42t41 -122q0 -82 -41 -123t-116 -41t-116 41zM287 516q22 23 22 75q0 97 -88 97t-88 -97q0 -52 22 -75t66 -23t66 23z" />
<glyph unicode="&#xb4;" horiz-adv-x="277" d="M135 783h76l-95 -146h-50z" />
<glyph unicode="&#xb8;" horiz-adv-x="308" d="M122 -166q51 0 51 35q0 37 -61 44l-35 3l40 104l56 -7l-29 -65q49 -4 73.5 -19.5t24.5 -53.5q0 -45 -34.5 -65.5t-99.5 -20.5h-42v50q30 -5 56 -5z" />
<glyph unicode="&#xba;" horiz-adv-x="606" d="M478 672q64 -59 64 -218t-64 -217.5t-175 -58.5q-72 0 -124 22.5t-83.5 83t-31.5 170.5q0 159 63.5 218t175.5 59q111 0 175 -59zM184 622.5q-42 -45.5 -42 -168.5t42 -168t119 -45q76 0 118 45t42 168t-42 168.5t-118 45.5q-77 0 -119 -45.5zM497 83v-65h-298v65h298z " />
<glyph unicode="&#xbb;" horiz-adv-x="611" d="M156 512l178 -222l-178 -222h-84l177 222l-177 222h84zM379 512l178 -222l-178 -222h-84l176 222l-176 222h84z" />
<glyph unicode="&#xc0;" horiz-adv-x="708" d="M518 167h-328l-62 -167h-88l264 700h100l264 -700h-88zM359 600l-2 11h-5l-3 -11l-130 -358h271zM376 775l-95 146h76l69 -146h-50z" />
<glyph unicode="&#xc1;" horiz-adv-x="708" d="M518 167h-328l-62 -167h-88l264 700h100l264 -700h-88zM359 600l-2 11h-5l-3 -11l-130 -358h271zM350 921h76l-95 -146h-50z" />
<glyph unicode="&#xc6;" horiz-adv-x="1055" d="M991 75v-75h-472v169h-324l-64 -169h-91l264 700h680v-75h-381v-231h364v-75h-364v-244h388zM519 244v376h-154l-142 -376h296z" />
<glyph unicode="&#xc7;" horiz-adv-x="682" d="M428.5 -71.5q24.5 -15.5 24.5 -53.5q0 -45 -34.5 -65.5t-99.5 -20.5h-42v50q30 -5 56 -5q51 0 51 35q0 37 -61 44l-35 3l29 76q-80 5 -135.5 38.5t-86.5 110.5t-31 208q0 144 36 223t99 108t156 29q72 0 132 -13.5t129 -38.5l-27 -81q-62 25 -117 39t-119 14 q-75 0 -118.5 -24t-64 -84t-20.5 -169q0 -116 22.5 -177t64 -82t109.5 -21q72 0 123 18t129 62l36 -72q-73 -43 -131.5 -64t-128.5 -24l-19 -44q49 -4 73.5 -19.5z" />
<glyph unicode="&#xc8;" horiz-adv-x="610" d="M539 700v-75h-381v-231h364v-75h-364v-244h388v-75h-472v700h465zM328 775l-95 146h76l69 -146h-50z" />
<glyph unicode="&#xc9;" horiz-adv-x="610" d="M539 700v-75h-381v-231h364v-75h-364v-244h388v-75h-472v700h465zM302 921h76l-95 -146h-50z" />
<glyph unicode="&#xcc;" horiz-adv-x="252" d="M168 700v-700h-84v700h84zM148 775l-95 146h76l69 -146h-50z" />
<glyph unicode="&#xcd;" horiz-adv-x="252" d="M168 700v-700h-84v700h84zM122 921h76l-95 -146h-50z" />
<glyph unicode="&#xd1;" horiz-adv-x="700" d="M626 700v-700h-90l-367 546l-9 19h-4l2 -29v-536h-84v700h90l367 -551l10 -19h4l-3 30v540h84zM249.5 886q15.5 25 47.5 25q22 0 37 -12.5t30 -33.5q11 -15 18.5 -22t16.5 -7q17 0 17 18q0 13 -7 36h57q1 -105 -62 -105q-24 0 -38.5 12.5t-32.5 36.5q-9 14 -16 21t-16 7 q-17 0 -17 -19q0 -17 8 -36h-57q-1 54 14.5 79z" />
<glyph unicode="&#xd2;" horiz-adv-x="756" d="M548 680q68 -29 106 -108t38 -223t-38 -222.5t-106 -107t-170 -28.5t-170 28.5t-106 107t-38 222.5t38 223t106 108t170 29t170 -29zM249.5 606.5q-48.5 -22.5 -74 -83.5t-25.5 -174t25.5 -173t74 -82t128.5 -22t128.5 22t74 82t25.5 173t-25.5 174t-74 83.5t-128.5 22.5 t-128.5 -22.5zM400 775l-95 146h76l69 -146h-50z" />
<glyph unicode="&#xd3;" horiz-adv-x="756" d="M548 680q68 -29 106 -108t38 -223t-38 -222.5t-106 -107t-170 -28.5t-170 28.5t-106 107t-38 222.5t38 223t106 108t170 29t170 -29zM249.5 606.5q-48.5 -22.5 -74 -83.5t-25.5 -174t25.5 -173t74 -82t128.5 -22t128.5 22t74 82t25.5 173t-25.5 174t-74 83.5t-128.5 22.5 t-128.5 -22.5zM374 921h76l-95 -146h-50z" />
<glyph unicode="&#xd9;" horiz-adv-x="688" d="M614 700v-512q0 -85 -63.5 -141t-206.5 -56q-142 0 -205.5 56t-64.5 141v512h84v-485q0 -64 39 -103.5t147 -39.5t147 39.5t39 103.5v485h84zM366 775l-95 146h76l69 -146h-50z" />
<glyph unicode="&#xda;" horiz-adv-x="688" d="M614 700v-512q0 -85 -63.5 -141t-206.5 -56q-142 0 -205.5 56t-64.5 141v512h84v-485q0 -64 39 -103.5t147 -39.5t147 39.5t39 103.5v485h84zM340 921h76l-95 -146h-50z" />
<glyph unicode="&#xdc;" horiz-adv-x="688" d="M614 700v-512q0 -85 -63.5 -141t-206.5 -56q-142 0 -205.5 56t-64.5 141v512h84v-485q0 -64 39 -103.5t147 -39.5t147 39.5t39 103.5v485h84zM295 876v-60h-61v60h61zM455 876v-60h-60v60h60z" />
<glyph unicode="&#xdf;" horiz-adv-x="639" d="M82 462q2 135 64.5 190.5t185.5 55.5q100 0 160.5 -38t60.5 -136q0 -65 -26 -102.5t-72 -45.5v-4q132 -35 132 -187q0 -104 -59 -153.5t-168 -49.5q-35 0 -68.5 4.5t-52.5 9.5v64q57 -9 109 -9q82 0 118 31.5t36 102.5q0 85 -39.5 117.5t-87.5 32.5h-41v66h35 q101 0 101 116q0 69 -35.5 91t-96.5 22t-97 -14.5t-55.5 -54t-20.5 -113.5v-458h-83v462z" />
<glyph unicode="&#xe0;" d="M188 571.5q55 18.5 126 18.5q95 0 154 -38t59 -128l-1 -324l10 -100h-74l-13 52q-39 -29 -85.5 -43.5t-107.5 -14.5q-204 0 -204 159v17q0 51 19.5 82.5t67 53.5t136.5 42q93 21 122.5 29t37 14t7.5 20v14q0 53 -37.5 75t-96.5 22q-48 0 -88 -15t-84 -50l-47 60 q44 36 99 54.5zM428 319.5q-10 -6.5 -41 -16.5t-94 -25q-68 -17 -99 -29t-44.5 -31.5t-13.5 -56.5v-9q0 -49 29.5 -68.5t101.5 -19.5q62 0 101 12t76 38v221q-6 -9 -16 -15.5zM328 657l-95 146h76l69 -146h-50z" />
<glyph unicode="&#xe1;" d="M188 571.5q55 18.5 126 18.5q95 0 154 -38t59 -128l-1 -324l10 -100h-74l-13 52q-39 -29 -85.5 -43.5t-107.5 -14.5q-204 0 -204 159v17q0 51 19.5 82.5t67 53.5t136.5 42q93 21 122.5 29t37 14t7.5 20v14q0 53 -37.5 75t-96.5 22q-48 0 -88 -15t-84 -50l-47 60 q44 36 99 54.5zM428 319.5q-10 -6.5 -41 -16.5t-94 -25q-68 -17 -99 -29t-44.5 -31.5t-13.5 -56.5v-9q0 -49 29.5 -68.5t101.5 -19.5q62 0 101 12t76 38v221q-6 -9 -16 -15.5zM302 803h76l-95 -146h-50z" />
<glyph unicode="&#xe4;" d="M188 571.5q55 18.5 126 18.5q95 0 154 -38t59 -128l-1 -324l10 -100h-74l-13 52q-39 -29 -85.5 -43.5t-107.5 -14.5q-204 0 -204 159v17q0 51 19.5 82.5t67 53.5t136.5 42q93 21 122.5 29t37 14t7.5 20v14q0 53 -37.5 75t-96.5 22q-48 0 -88 -15t-84 -50l-47 60 q44 36 99 54.5zM428 319.5q-10 -6.5 -41 -16.5t-94 -25q-68 -17 -99 -29t-44.5 -31.5t-13.5 -56.5v-9q0 -49 29.5 -68.5t101.5 -19.5q62 0 101 12t76 38v221q-6 -9 -16 -15.5zM256 758v-60h-61v60h61zM416 758v-60h-60v60h60z" />
<glyph unicode="&#xe6;" horiz-adv-x="1002" d="M948 269h-412q1 -82 19.5 -127.5t54.5 -63.5t93 -18q64 0 118.5 17.5t94.5 43.5l15 -66q-38 -27 -99 -45t-133 -18q-68 0 -117.5 18.5t-80.5 62.5q-98 -79 -241 -79q-208 0 -208 150v25q0 46 21.5 78t75.5 56t150 43q69 14 102 23.5t42 17.5t9 19v19q0 53 -37.5 75.5 t-94.5 22.5q-102 0 -185 -65l-47 59q41 32 95.5 53t137.5 21q150 0 189 -84q61 83 191 83q118 0 182.5 -68.5t64.5 -221.5v-31zM866 335q-3 99 -45 143t-121 44t-120.5 -44t-44.5 -143h331zM379.5 80q52.5 17 92.5 49q-21 60 -21 154q0 24 1 36q-5 -8 -29.5 -16t-105.5 -24 q-78 -15 -116.5 -30t-52 -34t-13.5 -51v-12q1 -50 30.5 -69.5t103.5 -19.5q58 0 110.5 17z" />
<glyph unicode="&#xe7;" horiz-adv-x="598" d="M339 -6l-20 -46q49 -4 73.5 -19.5t24.5 -53.5q0 -45 -34.5 -65.5t-99.5 -20.5h-42v50q27 -5 55 -5q51 0 51 35q0 37 -61 44l-35 3l29 76q-103 4 -164.5 70.5t-61.5 230.5q0 167 66.5 232t185.5 65q96 0 149 -25t80 -48l-45 -57q-3 2 -27 19t-66.5 30t-91.5 13 q-55 0 -91 -21.5t-55.5 -75t-19.5 -145.5q0 -120 38 -170t114 -50q54 0 96 17t65.5 35.5t51.5 45.5l48 -54q-86 -97 -213 -110z" />
<glyph unicode="&#xe8;" horiz-adv-x="605" d="M551 300v-31h-414q1 -81 20.5 -126.5t55.5 -64t93 -18.5q64 0 118 19t95 46l15 -70q-38 -27 -98.5 -45t-132.5 -18q-122 0 -185.5 64t-63.5 227q0 165 65 236t184 71q248 0 248 -290zM183.5 479q-41.5 -45 -46.5 -145h332q-5 100 -46.5 145t-119.5 45t-119.5 -45z M325 657l-95 146h76l69 -146h-50z" />
<glyph unicode="&#xe9;" horiz-adv-x="605" d="M551 300v-31h-414q1 -81 20.5 -126.5t55.5 -64t93 -18.5q64 0 118 19t95 46l15 -70q-38 -27 -98.5 -45t-132.5 -18q-122 0 -185.5 64t-63.5 227q0 165 65 236t184 71q248 0 248 -290zM183.5 479q-41.5 -45 -46.5 -145h332q-5 100 -46.5 145t-119.5 45t-119.5 -45z M299 803h76l-95 -146h-50z" />
<glyph unicode="&#xec;" horiz-adv-x="211" d="M104 637l-54 146h73l30 -146h-49zM154 582v-582h-83v582h83z" />
<glyph unicode="&#xed;" horiz-adv-x="211" d="M101 803h72l-74 -146h-50zM162 582v-582h-83v582h83z" />
<glyph unicode="&#xf1;" d="M472.5 546.5q55.5 -45.5 55.5 -131.5v-415h-83v405q0 60 -35.5 90.5t-96.5 30.5q-57 0 -91.5 -23t-62.5 -62l-4 -5v-436h-83v582h69l7 -72q27 33 73.5 57.5t110.5 24.5q85 0 140.5 -45.5zM197.5 768q15.5 25 47.5 25q22 0 37 -12.5t30 -33.5q11 -15 18.5 -22t16.5 -7 q17 0 17 18q0 13 -7 36h57q1 -105 -62 -105q-24 0 -38.5 12.5t-32.5 36.5q-9 14 -16 21t-16 7q-17 0 -17 -19q0 -17 8 -36h-57q-1 54 14.5 79z" />
<glyph unicode="&#xf2;" horiz-adv-x="624" d="M446 565.5q56 -24.5 90 -90t34 -184.5t-34 -184.5t-90 -90t-134 -24.5t-134 24.5t-90 90t-34 184.5t34 184.5t90 90t134 24.5t134 -24.5zM184 473q-45 -49 -45 -182t45 -182t128 -49t128 49t45 182t-45 182t-128 49t-128 -49zM334 657l-95 146h76l69 -146h-50z" />
<glyph unicode="&#xf3;" horiz-adv-x="624" d="M446 565.5q56 -24.5 90 -90t34 -184.5t-34 -184.5t-90 -90t-134 -24.5t-134 24.5t-90 90t-34 184.5t34 184.5t90 90t134 24.5t134 -24.5zM184 473q-45 -49 -45 -182t45 -182t128 -49t128 49t45 182t-45 182t-128 49t-128 -49zM308 803h76l-95 -146h-50z" />
<glyph unicode="&#xf9;" horiz-adv-x="595" d="M523 582v-582h-68l-7 68q-25 -30 -69.5 -51.5t-108.5 -21.5q-88 0 -143 40.5t-55 126.5v420h83v-409q0 -110 136 -110q95 0 146 67l3 5v447h83zM320 657l-95 146h76l69 -146h-50z" />
<glyph unicode="&#xfa;" horiz-adv-x="595" d="M523 582v-582h-68l-7 68q-25 -30 -69.5 -51.5t-108.5 -21.5q-88 0 -143 40.5t-55 126.5v420h83v-409q0 -110 136 -110q95 0 146 67l3 5v447h83zM294 803h76l-95 -146h-50z" />
<glyph unicode="&#xfc;" horiz-adv-x="595" d="M523 582v-582h-68l-7 68q-25 -30 -69.5 -51.5t-108.5 -21.5q-88 0 -143 40.5t-55 126.5v420h83v-409q0 -110 136 -110q95 0 146 67l3 5v447h83zM248 758v-60h-61v60h61zM408 758v-60h-60v60h60z" />
<glyph unicode="&#x131;" horiz-adv-x="247" d="M165 582v-582h-83v582h83z" />
<glyph unicode="&#x152;" horiz-adv-x="1012" d="M948 75v-75h-472v2q-41 -11 -98 -11q-102 0 -169.5 29t-106 107.5t-38.5 221.5q0 144 38.5 223t106 108t169.5 29q55 0 98 -10v1h465v-75h-381v-231h364v-75h-364v-244h388zM476 85v525q-34 19 -98 19q-80 0 -128.5 -22.5t-74 -83.5t-25.5 -174q0 -112 25.5 -172 t74 -82.5t128.5 -22.5q61 0 98 13z" />
<glyph unicode="&#x153;" horiz-adv-x="1036" d="M982 269h-414q2 -82 21.5 -127.5t55 -63.5t92.5 -18q65 0 119.5 17.5t93.5 43.5l15 -66q-38 -27 -98.5 -45t-132.5 -18q-75 0 -133.5 32.5t-74.5 98.5q-22 -68 -81 -99.5t-133 -31.5q-78 0 -134 24.5t-90 90t-34 184.5t34 184.5t90 90t134 24.5q75 0 135 -33t82 -103 q17 67 75.5 101.5t130.5 34.5q118 0 182.5 -68t64.5 -222v-31zM903 335q-5 99 -48 144t-121 45q-79 0 -120.5 -45t-45.5 -144h335zM440 109q45 49 45 182t-45 182t-128 49t-128 -49t-45 -182t45 -182t128 -49t128 49z" />
<glyph unicode="&#x2dc;" horiz-adv-x="335" d="M66.5 748q15.5 25 47.5 25q22 0 37 -12.5t30 -33.5q11 -15 18.5 -22t16.5 -7q17 0 17 18q0 13 -7 36h57q1 -105 -62 -105q-24 0 -38.5 12.5t-32.5 36.5q-9 14 -16 21t-16 7q-17 0 -17 -19q0 -17 8 -36h-57q-1 54 14.5 79z" />
<glyph unicode="&#x300;" horiz-adv-x="0" d="M-120 657l-95 146h76l69 -146h-50z" />
<glyph unicode="&#x301;" horiz-adv-x="0" d="M-146 803h76l-95 -146h-50z" />
<glyph unicode="&#x303;" horiz-adv-x="0" d="M-286.5 768q15.5 25 47.5 25q22 0 37 -12.5t30 -33.5q11 -15 18.5 -22t16.5 -7q17 0 17 18q0 13 -7 36h57q1 -105 -62 -105q-24 0 -38.5 12.5t-32.5 36.5q-9 14 -16 21t-16 7q-17 0 -17 -19q0 -17 8 -36h-57q-1 54 14.5 79z" />
<glyph unicode="&#x308;" horiz-adv-x="0" d="M-230 758v-60h-61v60h61zM-70 758v-60h-60v60h60z" />
<glyph unicode="&#x2000;" horiz-adv-x="460" />
<glyph unicode="&#x2001;" horiz-adv-x="921" />
<glyph unicode="&#x2002;" horiz-adv-x="460" />
<glyph unicode="&#x2003;" horiz-adv-x="921" />
<glyph unicode="&#x2004;" horiz-adv-x="307" />
<glyph unicode="&#x2005;" horiz-adv-x="230" />
<glyph unicode="&#x2006;" horiz-adv-x="153" />
<glyph unicode="&#x2007;" horiz-adv-x="153" />
<glyph unicode="&#x2008;" horiz-adv-x="115" />
<glyph unicode="&#x2009;" horiz-adv-x="184" />
<glyph unicode="&#x200a;" horiz-adv-x="51" />
<glyph unicode="&#x2010;" horiz-adv-x="447" d="M373 324v-67h-299v67h299z" />
<glyph unicode="&#x2011;" horiz-adv-x="447" d="M373 324v-67h-299v67h299z" />
<glyph unicode="&#x2012;" horiz-adv-x="447" d="M373 324v-67h-299v67h299z" />
<glyph unicode="&#x2013;" horiz-adv-x="598" d="M524 324v-67h-450v67h450z" />
<glyph unicode="&#x2014;" horiz-adv-x="966" d="M892 324v-67h-818v67h818z" />
<glyph unicode="&#x2018;" horiz-adv-x="224" d="M14 464l78 280h46l-39 -280h-85z" />
<glyph unicode="&#x2019;" horiz-adv-x="224" d="M190 743l-77 -280h-47l39 280h85z" />
<glyph unicode="&#x201a;" horiz-adv-x="280" d="M190 151l-77 -280h-47l39 280h85z" />
<glyph unicode="&#x201c;" horiz-adv-x="407" d="M14 464l78 280h46l-39 -280h-85zM197 464l78 280h46l-39 -280h-85z" />
<glyph unicode="&#x201d;" horiz-adv-x="407" d="M190 743l-77 -280h-47l39 280h85zM373 743l-77 -280h-47l39 280h85z" />
<glyph unicode="&#x201e;" horiz-adv-x="463" d="M190 151l-77 -280h-47l39 280h85zM373 151l-77 -280h-47l39 280h85z" />
<glyph unicode="&#x2022;" horiz-adv-x="341" d="M107.5 252.5q-25.5 26.5 -25.5 67.5t25.5 67.5t63.5 26.5q37 0 62.5 -26.5t25.5 -67.5t-25.5 -67.5t-62.5 -26.5q-38 0 -63.5 26.5z" />
<glyph unicode="&#x2026;" horiz-adv-x="752" d="M662 82v-87h-84v87h84zM418 82v-87h-84v87h84zM174 82v-87h-84v87h84z" />
<glyph unicode="&#x202f;" horiz-adv-x="184" />
<glyph unicode="&#x2039;" horiz-adv-x="388" d="M140 290l176 -222h-84l-178 222l178 222h84z" />
<glyph unicode="&#x203a;" horiz-adv-x="388" d="M156 512l178 -222l-178 -222h-84l177 222l-177 222h84z" />
<glyph unicode="&#x205f;" horiz-adv-x="230" />
<glyph unicode="&#x20ac;" horiz-adv-x="669" d="M621 164q-13 -86 -73 -129t-176 -43q-77 0 -129.5 22t-84.5 75.5t-43 146.5h-51v66h46q-1 15 -1 50q0 42 1 62h-46v66h52q12 87 43.5 136.5t84.5 70.5t135 21q102 0 159.5 -33.5t77.5 -116.5l-85 -15q-17 46 -52 65.5t-102 19.5q-53 0 -87.5 -13t-56 -45t-30.5 -90h248 l-7 -66h-247q-2 -40 -2 -63q0 -34 1 -49h240l-7 -66h-227q9 -65 31.5 -100.5t57.5 -49.5t87 -14q74 0 110.5 25t49.5 83z" />
<glyph unicode="&#x2122;" horiz-adv-x="933" d="M402 680h-136v-339h-67v339h-135v63h338v-63zM869 341h-67v280l5 32h-6l-7 -18l-106 -191h-47l-106 191l-8 18h-6l6 -32v-280h-67v402h81l118 -217l3 -9h4l3 9l119 217h81v-402z" />
<glyph unicode="&#x2212;" horiz-adv-x="489" d="M415 342v-65h-341v65h341z" />
<glyph unicode="&#x25fc;" horiz-adv-x="580" d="M0 580h580v-580h-580v580z" />
<glyph horiz-adv-x="611" d="M497.5 40q-59.5 -48 -186.5 -48q-84 0 -139 23.5t-86.5 88.5t-31.5 187t31.5 187t86.5 88.5t138 23.5q121 0 180.5 -44.5t60.5 -145.5h-82q0 63 -39 92.5t-119 29.5q-62 0 -98.5 -20t-55 -70t-18.5 -141q0 -95 18.5 -144.5t55 -68t98.5 -18.5q87 0 125 32t38 108h83 q0 -112 -59.5 -160z" />
<glyph horiz-adv-x="596" d="M486 31q-28 -14 -75.5 -26.5t-105.5 -12.5q-82 0 -135.5 23.5t-84.5 89.5t-31 188t30.5 186.5t85.5 87.5t141 23q65 0 119 -13t104 -31l-22 -69q-51 19 -100 32t-105 13q-65 0 -100.5 -18t-52 -66.5t-16.5 -144.5t16.5 -146t51.5 -68.5t99 -18.5q44 0 81.5 10.5t60 22 t70.5 38.5l33 -65q-36 -21 -64 -35z" />
<glyph horiz-adv-x="589" d="M475 547q41 -35 41 -102v-52q0 -52 -24.5 -79.5t-60.5 -37.5v-1q54 -12 69 -67q5 -23 10 -76q8 -82 19 -132h-82q-8 42 -12 97q-2 24 -5 47t-8 39q-9 28 -27.5 40t-54.5 12h-186v-235h-82v582h288q74 0 115 -35zM434 436q0 80 -92 80h-188v-215h189q43 0 67 20.5t24 62.5 v52z" />
</font>
</defs>
</svg>
